Krampus The Devil Returns BluRay MicroHD
El Muñeco De Nieve BluRay MicroHD

MatPat's Game Lab (s01e07) Are YOU Being Hacked (Watch Dogs 2) | YouTube Red (720pHD) WEBRip mp4 [Zeus]

seeders: 64
leechers: 7
updated:
Added by Zeus19.45K in TV
Torrent verified. Downloaded 769 times.

DownloadFast Safe Anonymous
movies, software, shows...
  • View all MatPat's Game Lab episodes
  • Episode title: Untitled
  • Episode: S01E07
  • Air date: 13 July 2016
  • IMDb link: 5761730
  • TVmaze link: MatPat's Game Lab
  • Summary:

    MatPat's Game Lab is a YouTube Red original show that puts game mechanics to the test in the real world and tests whether gamers can handle their favorite games IRL.

    Written by Zeus19.45K
Available in versions: 2160p1080p720p
MatPat's Game Lab (s01e07) Are YOU Being Hacked (Watch Dogs 2) | YouTube Red (720pHD) WEBRip mp4... (Size: 320.63 MB)
  MatPat's Game Lab (s01e07) Are YOU Being Hacked (Watch Dogs 2) YouTube Red (720pHD) WEBRip... 320.63 MB

Description

image
Format : MPEG-4
Format profile : Base Media / Version 2
Codec ID : mp42 (isom/mp42)
File size : 321 MiB
Duration : 22mn 59s
Overall bit rate mode : Variable
Overall bit rate : 1 950 Kbps
Encoded date : UTC 2016-06-16 06:24:42
Tagged date : UTC 2016-06-16 06:24:42
gsst : 0
gstd : 1379265

Video
ID : 1
Format : AVC
Format/Info : Advanced Video Codec
Format profile : [email protected]
Format settings, CABAC : Yes
Format settings, ReFrames : 3 frames
Codec ID : avc1
Codec ID/Info : Advanced Video Coding
Duration : 22mn 59s
Bit rate : 1 820 Kbps
Width : 1 280 pixels
Height : 720 pixels
Display aspect ratio : 16:9
Frame rate mode : Variable
Frame rate : 23.976 (24000/1001) fps
Minimum frame rate : 23.974 fps
Maximum frame rate : 23.981 fps
Color space : YUV
Chroma subsampling : 4:2:0
Bit depth : 8 bits
Scan type : Progressive
Bits/(Pixel*Frame) : 0.082
Stream size : 299 MiB (93%)
Title : ISO Media file produced by Google Inc.
Encoded date : UTC 2016-06-16 06:24:42
Tagged date : UTC 2016-06-16 06:24:42
Color range : Limited
Color primaries : BT.709
Transfer characteristics : BT.709
Matrix coefficients : BT.709

Audio
ID : 2
Format : AAC
Format/Info : Advanced Audio Codec
Format profile : LC
Codec ID : 40
Duration : 22mn 59s
Bit rate mode : Variable
Bit rate : 126 Kbps
Channel(s) : 2 channels
Channel positions : Front: L R
Sampling rate : 44.1 KHz
Frame rate : 43.066 fps (1024 spf)
Compression mode : Lossy
Stream size : 20.6 MiB (6%)
Title : ISO Media file produced by Google Inc.
Encoded date : UTC 2016-06-16 06:24:42
Tagged date : UTC 2016-06-16 06:24:42

Sharing Widget


Download torrent
320.63 MB
seeders:65
leechers:7
MatPat's Game Lab (s01e07) Are YOU Being Hacked (Watch Dogs 2) | YouTube Red (720pHD) WEBRip mp4 [Zeus]



To share this torrent use the code below and insert it into comments, status messages, forum posts or your signature.

Torrent: MatPat's Game Lab (s01e07) A...d (720pHD) WEBRip mp4 [Zeus]

Trackers

tracker name
http://pow7.com/announce
udp://tracker.openbittorrent.com:80/announce
http://secure.pow7.com/announce
udp://tracker.coppersurfer.tk:6969/announce
udp://p4p.arenabg.com:1337/announce
http://open.touki.ru/announce.php
udp://tracker.opentrackr.org:1337/announce
http://tracker.edoardocolombo.eu:6969/announce
µTorrent compatible trackers list

Locations

name
KickassTorrents
Torrent hash: CB60BE6606B56C7B986C2CB9F76F5F0B68201E6D

All Comments

audio
9/10
video
9/10
please, leave only comments related to that torrent
Sign In

audio: 9video: 9
Wake up, new game lab out "lets go check Zeus' uploads" Sure enough <3 keep up the great work my friend
that was quick thanks dude

User Opinions

Report a bug Open chat