Lizeth Hutchings
Marisela Zumbado

Scare PewDiePie (s01e07) LEVEL SEVEN | I'M NOT CRAZY (OUTLAST IRL GAMEPLAY) - YouTube Red mp4 [Zeus]

seeders: 2
leechers: 0
updated:
Added by Zeus19.54K in TV
Torrent verified. Downloaded 3,122 times.

DownloadFast Safe Anonymous
movies, software, shows...
  • View all Scare PewDiePie episodes
  • Episode title: Level 7: I'm Not Crazy (Outlast IRL Gameplay)
  • Episode: S01E07
  • Air date: 10 February 2016
  • IMDb link: 5435072
  • TVmaze link: Scare PewDiePie
  • Original run: 10 February 2016 — Present
  • Summary:

    Scare PewDiePie is a reality web series created for YouTube's subscription service, YouTube Red and starring Felix Kjellberg, better known by his online alias "PewDiePie". It features PewDiePie, exploring sets whose designs are based on the horror video games which PewDiePie plays and commentates over on his YouTube channel.

    Written by The.Banshee7424
Available in versions: 720pHDTV
Scare PewDiePie (s01e07) LEVEL SEVEN | I'M NOT CRAZY (OUTLAST IRL GAMEPLAY) - YouTube Red mp4 [Zeus] (Size: 401.01 MB)
  Scare PewDiePie (s01e07) LEVEL SEVEN I'M NOT CRAZY (OUTLAST IRL GAMEPLAY) - YouTube Red... 401.01 MB

Description

image

Format : MPEG-4
Format profile : Base Media
Codec ID : isom
File size : 401 MiB
Duration : 20mn 39s
Overall bit rate mode : Variable
Overall bit rate : 2 715 Kbps
Writing application : Lavf54.63.104

Video
ID : 1
Format : MPEG-4 Visual
Format profile : [email protected]
Format settings, BVOP : No
Format settings, QPel : No
Format settings, GMC : No warppoints
Format settings, Matrix : Default (H.263)
Codec ID : 20
Duration : 20mn 39s
Bit rate mode : Constant
Bit rate : 2 581 Kbps
Width : 640 pixels
Height : 359 pixels
Display aspect ratio : 16:9
Frame rate mode : Constant
Frame rate : 29.000 fps
Color space : YUV
Chroma subsampling : 4:2:0
Bit depth : 8 bits
Scan type : Progressive
Compression mode : Lossy
Bits/(Pixel*Frame) : 0.387
Stream size : 381 MiB (95%)
Writing library : Lavc54.92.100

Audio
ID : 2
Format : AAC
Format/Info : Advanced Audio Codec
Format profile : LC
Codec ID : 40
Duration : 20mn 39s
Bit rate mode : Variable
Bit rate : 128 Kbps
Channel(s) : 2 channels
Channel positions : Front: L R
Sampling rate : 44.1 KHz
Compression mode : Lossy
Stream size : 18.8 MiB (5%)

Sharing Widget


Download torrent
401.01 MB
seeders:4
leechers:0
Scare PewDiePie (s01e07) LEVEL SEVEN | I'M NOT CRAZY (OUTLAST IRL GAMEPLAY) - YouTube Red mp4 [Zeus]



To share this torrent use the code below and insert it into comments, status messages, forum posts or your signature.

Torrent: Scare PewDiePie (s01e07) LEV...AY) - YouTube Red mp4 [Zeus]

Trackers

tracker name
udp://tracker.openbittorrent.com:80/announce
udp://tracker.publicbt.com:80/announce
udp://tracker.coppersurfer.tk:6969/announce
udp://glotorrents.pw:6969/announce
udp://tracker.ccc.de:80/announce
µTorrent compatible trackers list

Locations

name
KickassTorrents
Torrent hash: 468F2673414DDA68B979F50F11F0FE9E95F9B17A

All Comments

audio
10/10
video
1/10
please, leave only comments related to that torrent
Sign In

In VLC: Tools > Preferences > Show settings "All" > Video > Output modules > Video output module > OpenGL video output. This should make the video play.
Plays fine in my VLC, so IDK what the issue is. Quality is fine, but lower resolution than other Scare PewDiePie files by Zeus
audio: 10video: 1
No use, Episodes One and Seven don't work, they only play as audio files. Even in VLC.
torrent doesn't work ,it can't be found please fix I really hate to use the magnet link
torrent not found please fix this I hate to use the magnet link
there is a episode 6 just click on the picther then all the movies and more com up for you :)

its a music file, its not video!
your media player does not support mp4. get VLC media player
I use MPC-HC which definitely supports mp4, yet it's still not working. Such a shame.


User Opinions

Report a bug Open chat